USA Tel (404) 200-4776

MP3-1929400 John Nelson dirige le Requiem de Berlioz à Londres - Mezzo Live HD

MP3-1929400 John Nelson dirige le Requiem de Berlioz à Londres - Mezzo Live HD
Item# MP3-1929400
Regular price: $5.95
Sale price: $4.17

Product Description

MP3-1929400 John Nelson dirige le Requiem de Berlioz à Londres - Mezzo Live HD

John Nelson dirige le Requiem de Berlioz à Londres

Mezzo Live HD

DISTRIBUTION Philharmonia Orchestra Philharmonia Chorus London Philharmonic Choir John Nelson (Direction) Michael Spyres (Ténor) AU PROGRAMME Hector Berlioz (1803 - 1869) Grande messe des morts, op. 5, H 75

Enregistrement : 8 mars 2019 - Saint Paul Cathedral | London Réalisation : Sébastien Glas Durée: 01:33

A recording of the live broadcast.

Berlioz_Requiem Nelson;Spyres London.m2ts 2.12 Go

Berlioz_Requiem Nelson;Spyres London.m2ts Format : BDAV Format/Info : Blu-ray Video File size : 2.12 GiB Duration : 1 h 33 min Overall bit rate mode : Variable Overall bit rate : 3 234 kb/s Maximum Overall bit rate : 28.0 Mb/s

Video ID : 2007 (0x7D7) Menu ID : 21103 (0x526F) Format : AVC Format/Info : Advanced Video Codec Format profile : High@L4 Format settings : CABAC / 4 Ref Frames Format settings, CABAC : Yes Format settings, RefFrames : 4 frames Format settings, GOP : M=4, N=28 Codec ID : 27 Duration : 1 h 33 min Bit rate : 2 841 kb/s Width : 1 920 pixels Height : 1 080 pixels Display aspect ratio : 16:9 Frame rate : 25.000 FPS Standard : Component Color space : YUV Chroma subsampling : 4:2:0 Bit depth : 8 bits Scan type : Interlaced Scan type, store method : Separated fields Scan order : Top Field First Bits/(Pixel*Frame) : 0.055 Stream size : 1.86 GiB (88%) Color range : Limited Color primaries : BT.709 Transfer characteristics : BT.709 Matrix coefficients : BT.709

Audio ID : 3007 (0xBBF) Menu ID : 21103 (0x526F) Format : MPEG Audio Format version : Version 1 Format profile : Layer 2 Format settings : Joint stereo / Intensity Stereo + MS Stereo Codec ID : 4 Duration : 1 h 33 min Bit rate mode : Constant Bit rate : 256 kb/s Channel(s) : 2 channels Sampling rate : 48.0 kHz Frame rate : 41.667 FPS (1152 SPF) Compression mode : Lossy Delay relative to video : -284 ms Stream size : 172 MiB (8%) Language : French



Click below for a preview.




All download links and files are emailed to you within 72 business hours of your order. Please note: If you are charged shipping for any MP3, please let us know and we will refund you immediately! Also, almost all CD's are available as MP3's.

Shipping rates in the USA and Canada are $3.99 for the first item and $1.25 for each additional item. Shipping rates outside the USA and Canada are $14.00 for the first item and $2.50 for each additional item.

Important Information!!!
USA Telephone (404) 200-4776 We sell only opera recordings. The recordings are sent to you in paper sleeves with no tray card or inserts, just the raw discs with printed labels. These recordings are of nonprofessional quality that are in the public domain. The quality of these old opera recordings is not very good and they are meant for collectors and educational purposes only. Most of them are 30 or 40 years old, so they might be blurry, colors faded, and not sound very good, but they might not be available elsewhere. Please note that most of our recordings do not have tracks, they have 1 long track per disc.