USA Tel (404) 200-4776

CD83743 LA Phil season opener - Dudamel - Flórez

CD83743 LA Phil season opener - Dudamel - Flórez
CD83743 LA Phil season opener - Dudamel - Flórez
Item# CD83743
Regular price: $12.95
Sale price: $7.77

Product Description

CD83743 LA Phil season opener - Dudamel - Flórez

Here's German TV channel 3Sat's broadcast on Saturday, 9 October 2010, of the LA Phil's first concert of the season conducted by their new conductor Gustavo Dudamel and featuring Juan Diego Flórez.

I've cut the German introduction (a couple of minutes only) out, and have placed cue marks on either side of the interval interviews so people can jump over that segment. Otherwise, the cue marks are pretty much random I', afraid.

This is a DVD-burn ready version, but playable on computers using software like the VLC media player.

This is the best audio/video quality I can muster at my level of competence, I'm afraid.

Technical info: Recorded on Pioneer DVD recorder, burned to DVD-R, transferred to computer using TMPGEnc Authoring Works.

General Format : MPEG-PS File size : 1 024 MiB Overall bit rate : 5 832 Kbps

Video ID : 224 (0xE0) Format : MPEG Video Format version : Version 2 Format profile : Main@Main Format settings, BVOP : Yes Format settings, Matrix : Default Bit rate mode : Variable Bit rate : 5 460 Kbps Nominal bit rate : 9 500 Kbps Width : 720 pixels Height : 576 pixels Display aspect ratio : 16:9 Frame rate : 25.000 fps Standard : PAL Color space : YUV Chroma subsampling : 4:2:0 Bit depth : 8 bits Scan type : Interlaced Scan order : Top Field First Bits/(Pixel*Frame) : 0.527 Stream size : 959 MiB (94%)

Audio ID : 128 (0x80) Format : AC-3 Format/Info : Audio Coding 3 Mode extension : CM (complete main) Bit rate mode : Constant Bit rate : 256 Kbps Channel(s) : 2 channels Channel positions : Front: L R Sampling rate : 48.0 KHz Bit depth : 16 bits Video delay : -80ms Stream size : 44.9 MiB (4%)

All download links and files are emailed to you within 72 business hours of your order. Please note: If you are charged shipping for any MP3, please let us know and we will refund you immediately! Also, almost all CD's are available as MP3's.

Shipping rates in the USA are $3.99 for the first item and $1.25 for each additional item. Shipping rates outside the USA are $16.00 for the first item and $2.50 for each additional item.

Important Information!!!
USA Telephone (404) 200-4776 We sell only opera recordings. The recordings are sent to you in paper sleeves with no tray card or inserts, just the raw discs with printed labels. These recordings are of nonprofessional quality that are in the public domain. The quality of these old opera recordings is not very good and they are meant for collectors and educational purposes only. Most of them are 30 or 40 years old, so they might be blurry, colors faded, and not sound very good, but they might not be available elsewhere. Please note that most of our recordings do not have tracks, they have 1 long track per disc.