USA Tel (404) 200-4776

CD1895200 Lionel Meunier et Vox Luminis : Haendel

CD1895200 Lionel Meunier et Vox Luminis : Haendel
Item# CD1895200
Regular price: $6.95
Sale price: $4.17

Product Description

CD1895200 Lionel Meunier et Vox Luminis : Haendel

Recorded from Mezzo Live HD. Although I recorded the live broadcast, I later found out it was protected so I couldn't use it. This is a later rebroadcast that, luckily, retains all the intermission interviews. The presentation below was copied from the Mezzo website.

Lionel Meunier et son ensemble Vox Luminis n'ont pas leur pareil pour redonner vie aux grands chefs-d'oeuvres baroques. Nous avons maintenant hâte de les retrouver dans le cadre idoine de la Chapelle royale de Versailles pour interpréter les plus belles pages de Haendel. Avec trompettes et timbales !

DISTRIBUTION Vox Luminis Lionel Meunier (Direction) AU PROGRAMME Georg Friedrich Haendel (1685-1759) Nisi Dominus, HWV 238 Dixit Dominus HWV 232 Ode à saint Cécile HWV 76

Enregistrement : 8 décembre 2018 - Chapelle Royale | Château de Versailles Réalisation : Patrick Lauze Durée: 02:17

Handel a Versailles - Vox Liminis, L_Meunier 8dec2018.m2ts 3.48 Go

Handel a Versailles - Vox Liminis, L_Meunier 8dec2018.m2ts Format : BDAV Format/Info : Blu-ray Video File size : 3.48 GiB Duration : 2 h 17 min Overall bit rate mode : Variable Overall bit rate : 3 634 kb/s Maximum Overall bit rate : 28.0 Mb/s

Video ID : 2007 (0x7D7) Menu ID : 21103 (0x526F) Format : AVC Format/Info : Advanced Video Codec Format profile : High@L4 Format settings : CABAC / 4 Ref Frames Format settings, CABAC : Yes Format settings, RefFrames : 4 frames Codec ID : 27 Duration : 2 h 17 min Bit rate : 3 225 kb/s Width : 1 920 pixels Height : 1 080 pixels Display aspect ratio : 16:9 Frame rate : 25.000 FPS Standard : Component Color space : YUV Chroma subsampling : 4:2:0 Bit depth : 8 bits Scan type : Interlaced Scan type, store method : Separated fields Scan order : Top Field First Bits/(Pixel*Frame) : 0.062 Stream size : 3.09 GiB (89%) Color range : Limited Color primaries : BT.709 Transfer characteristics : BT.709 Matrix coefficients : BT.709

Audio ID : 3007 (0xBBF) Menu ID : 21103 (0x526F) Format : MPEG Audio Format version : Version 1 Format profile : Layer 2 Format settings : Joint stereo / Intensity Stereo + MS Stereo Codec ID : 4 Duration : 2 h 17 min Bit rate mode : Constant Bit rate : 256 kb/s Channel(s) : 2 channels Sampling rate : 48.0 kHz Frame rate : 41.667 FPS (1152 SPF) Compression mode : Lossy Delay relative to video : -904 ms Stream size : 251 MiB (7%) Language : French



Click below for a preview.




All download links and files are emailed to you within 72 business hours of your order. Please note: If you are charged shipping for any MP3, please let us know and we will refund you immediately! Also, almost all CD's are available as MP3's.

Shipping rates in the USA and Canada are $3.99 for the first item and $1.25 for each additional item. Shipping rates outside the USA and Canada are $14.00 for the first item and $2.50 for each additional item.

Important Information!!!
USA Telephone (404) 200-4776 We sell only opera recordings. The recordings are sent to you in paper sleeves with no tray card or inserts, just the raw discs with printed labels. These recordings are of nonprofessional quality that are in the public domain. The quality of these old opera recordings is not very good and they are meant for collectors and educational purposes only. Most of them are 30 or 40 years old, so they might be blurry, colors faded, and not sound very good, but they might not be available elsewhere. Please note that most of our recordings do not have tracks, they have 1 long track per disc.