USA Tel (404) 200-4776

MP3-1913800 Mam'zelle Nitouche Une opérett e d'Hervé à l'Opéra de Lausanne

MP3-1913800 Mam'zelle Nitouche Une opérett e d'Hervé à l'Opéra de Lausanne
Item# MP3-1913800
Regular price: $5.95
Sale price: $2.38

Product Description

MP3-1913800 Mam'zelle Nitouche Une opérett e d'Hervé à l'Opéra de Lausanne

A German version is also available for those who prefer it.

I uploaded the French version which has (some) French subtitles.

Mam'zelle Nitouche Une opérette d'Hervé à l'Opéra de Lausanne

127 min Disponible du 15/02/2019 au 14/04/2019

Célestin, professeur de musique dans un couvent le jour, se reconvertit la nuit en un compositeur de musique nommé Floridor. Denise est une pensionnaire réservée et assidue du couvent, mais sa curiosité la transformera bientôt en Mam'zelle Nitouche le soir. Le compositeur Hervé s'est inspiré de sa propre vie pour créer cette opérette en forme de vaudeville qui est ici donnée à l'Opéra de Lausanne. Célestin, homme pieux et professeur de musique au couvent des Hirondelles la journée, se transforme en Floridor une fois la nuit tombée, afin de répéter l'opérette dont il compose la musique. Denise de Flavigny, prude pensionnaire du couvent et promise à Fernand, Vicompte de Champlâtreux, est autorisée à allonger ses leçons de musique, découvrant secrètement le double jeu du professeur. S'en suit une relation étroite entre les deux protagonistes, Célestin et Denise le jour, Floridor et Mam'zelle Nitouche la nuit. Le compositeur Hervé revisite le mythe de la Sainte Nitouche à travers son Vaudeville-opérette en trois actes "Mam'zelle Nitouche", à l'Opéra de Lausanne. Le compositeur s'inspire tout bonnement de sa propre vie, lui qui était organiste de Sainte-Eustache, et qui arrondissait ses fins de mois au théâtre sous un pseudonyme. L'opérette, dont la première représentation a eu lieu il y a 136 ans déjà, dispose ici d'un casting d'exception, formé entre autres, d'Olivier Py, Lara Neumann, Damien Bigourdan, Samy camps et Eddie Chignara, accompagnés par l'Orchestre de chambre de Lausanne ainsi que par le chœur de l'Opéra de Lausanne.

Avec : Miss Knife (La Supérieure, Corinne) Lara Neumann (Denise de Flavigny) Damien Bigourdan (Célestin) Olivier Py (Loriot) Samy Camps (Fernand de Champlâtreux) Eddie Chignara (Major) Mise en scène : Pierre-André Weitz Direction musicale : Christophe Grapperon Orchestre : Orchestre de Chambre de Lausanne Direction de chœur : Jean-Philippe Clerc Choeur : Chœur de l’Opéra de Lausanne Chorégraphie : Iris Florentiny Scénographie : Pierre-André Weitz Lumière : Bertrand Killy

2019

Mam-zelle Nitouche - Herve - Opera de Lausanne 2019-02-15 arte_Fr_1280x720_2200.mp4 2.32 Go

Technical:

Mam'zelle Nitouche - Hervé - l'Opéra de Lausanne 2019-02-15 arte_Fr_1280x720_2200.mp4 Format : MPEG-4 Format profile : Base Media / Version 2 Codec ID : mp42 (isom/mp42) File size : 2.32 GiB Duration : 2 h 6 min Overall bit rate mode : Variable Overall bit rate : 2 629 kb/s Encoded date : UTC 2019-02-14 18:56:44 Tagged date : UTC 2019-02-14 18:56:44

Video ID : 1 Format : AVC Format/Info : Advanced Video Codec Format profile : Main@L3.1 Format settings : CABAC / 3 Ref Frames Format settings, CABAC : Yes Format settings, RefFrames : 3 frames Format settings, GOP : M=4, N=33 Codec ID : avc1 Codec ID/Info : Advanced Video Coding Duration : 2 h 6 min Bit rate : 2 499 kb/s Width : 1 280 pixels Height : 720 pixels Display aspect ratio : 16:9 Frame rate mode : Constant Frame rate : 25.000 FPS Standard : PAL Color space : YUV Chroma subsampling : 4:2:0 Bit depth : 8 bits Scan type : Progressive Bits/(Pixel*Frame) : 0..108 Stream size : 2.20 GiB (95%) Encoded date : UTC 2019-02-14 18:56:45 Tagged date : UTC 2019-02-14 18:56:45 Color range : Limited Codec configuration box : avcC

Audio ID : 2 Format : AAC LC Format/Info : Advanced Audio Codec Low Complexity Codec ID : mp4a-40-2 Duration : 2 h 6 min Bit rate mode : Variable Bit rate : 125 kb/s Maximum bit rate : 152 kb/s Channel(s) : 2 channels Channel layout : L R Sampling rate : 48.0 kHz Frame rate : 46.875 FPS (1024 SPF) Compression mode : Lossy Stream size : 113 MiB (5%) Encoded date : UTC 2019-02-14 18:56:45 Tagged date : UTC 2019-02-14 18:56:45



Click below for a preview.




All download links and files are emailed to you within 72 business hours of your order. Please note: If you are charged shipping for any MP3, please let us know and we will refund you immediately! Also, almost all CD's are available as MP3's.

Shipping rates in the USA and Canada are $3.99 for the first item and $1.00 for each additional item. Shipping rates outside the USA and Canada are $5.99 for the first item and $2.50 for each additional item.

Important Information!!!
USA Telephone (404) 200-4776 We sell only opera recordings. The recordings are sent to you in paper sleeves with no tray card or inserts, just the raw discs with printed labels. These recordings are of nonprofessional quality that are in the public domain. The quality of these old opera recordings is not very good and they are meant for collectors and educational purposes only. Most of them are 30 or 40 years old, so they might be blurry, colors faded, and not sound very good, but they might not be available elsewhere. Please note that most of our recordings do not have tracks, they have 1 long track per disc.