USA Tel (404) 200-4776

MP3-1849000 Roger Norrington, Arabella Steinbacher et l'Orchestr e symphonique de Montréal : Schumann et Brahms

Item# MP3-1849000
$6.99

Product Description

MP3-1849000 Roger Norrington, Arabella Steinbacher et l'Orchestr e symphonique de Montréal : Schumann et Brahms

An older recording from Mezzo Live HD of an excellent concert.

Orchestre symphonique de Montréal, Roger Norrington (direction) Arabella Steinbacher (violon)

Robert Schumann Symphonie no 1 en si bémol majeur, op. 38, « Le printemps »

Johannes Brahms Concerto pour violon en ré majeur, op. 77

Enregistré le 15 avril 2015 à la Maison symphonique de Montréal Réalisation, Julien Condemine

R_Norrington,A_Steinbacher.m2ts Format : BDAV Format/Info : Blu-ray Video File size : 1.98 GiB Duration : 1 h 24 min Overall bit rate mode : Variable Overall bit rate : 3 342 kb/s Maximum Overall bit rate : 28.0 Mb/s

Video ID : 125 (0x7D) Menu ID : 11106 (0x2B62) Format : MPEG Video Format version : Version 2 Format profile : Main@Main Format settings : CustomMatrix / BVOP Format settings, BVOP : Yes Format settings, Matrix : Custom Format settings, GOP : M=3, N=12 Format settings, picture structure : Frame Codec ID : 2 Duration : 1 h 24 min Bit rate mode : Variable Bit rate : 2 945 kb/s Maximum bit rate : 15.0 Mb/s Width : 704 pixels Height : 576 pixels Display aspect ratio : 16:9 Active Format Description : Letterbox 16:9 image Frame rate : 25.000 FPS Standard : PAL Color space : YUV Chroma subsampling : 4:2:0 Bit depth : 8 bits Scan type : Interlaced Scan order : Top Field First Compression mode : Lossy Bits/(Pixel*Frame) : 0.290 Stream size : 1.74 GiB (88%)

Audio ID : 135 (0x87) Menu ID : 11106 (0x2B62) Format : MPEG Audio Format version : Version 1 Format profile : Layer 2 Codec ID : 3 Duration : 1 h 24 min Bit rate mode : Constant Bit rate : 256 kb/s Channel(s) : 2 channels Sampling rate : 48.0 kHz Frame rate : 41..667 FPS (1152 SPF) Compression mode : Lossy Delay relative to video : -792 ms Stream size : 155 MiB (8%) Language : Multiple languages

Menu ID : 115 (0x73) Menu ID : 11106 (0x2B62) Duration : 1 h 24 min List : 125 (0x7D) (MPEG Video) / 135 (0x87) (MPEG Audio, Multiple languages) / 185 (0xB9) () Language : / Multiple languages



Click below for a preview.




All download links and files are emailed to you within 72 business hours of your order. Please note: If you are charged shipping for any MP3, please let us know and we will refund you immediately! Also, almost all CD's are available as MP3's.

Shipping rates in the USA and Canada are $3.99 for the first item and $1.00 for each additional item. Shipping rates outside the USA and Canada are $5.99 for the first item and $2.50 for each additional item.

Important Information!!!
USA Telephone (404) 200-4776 We sell only opera recordings. The recordings are sent to you in paper sleeves with no tray card or inserts, just the raw discs with printed labels. These recordings are of nonprofessional quality that are in the public domain. The quality of these old opera recordings is not very good and they are meant for collectors and educational purposes only. Most of them are 30 or 40 years old, so they might be blurry, colors faded, and not sound very good, but they might not be available elsewhere. Please note that most of our recordings do not have tracks, they have 1 long track per disc.