USA Tel (404) 200-4776

MP3-1846800 "La Traviata" de Verdi au théâtre du Capitole -r eprésentation intégrale du jeudi 4 octobre

Item# MP3-1846800
$6.36

Product Description

MP3-1846800 "La Traviata" de Verdi au théâtre du Capitole -r eprésentation intégrale du jeudi 4 octobre

Also available online, downloded from youtube (link below).

Théâtre du Capitole Du 26 septembre 2018 au 07 octobre 2018 Durée 2h40 26, 28*, 29 septembre et 2, 4, 5* octobre 20h 30* septembre et 7 octobre 15h 7 octobre 20h30

4 octobre 2018, 20h

LA TRAVIATA

George Petrou Direction musicale Pierre Rambert Mise en scène Antoine Fontaine Décors Frank Sorbier Costumes Hervé Gary Lumières Laurence Fanon Collaboratrice artistique

DISTRIBUTION

Anita Hartig* Polina Pastirchak** Violetta Valéry Airam Hernández* Kévin Amiel** Alfredo Germont Nicola Alaimo* André Heyboer** Giorgio Germont Catherine Trottmann Flora Bervoix Anna Steiger Annina Francis Dudziak Docteur Grenvil François Piolino Gaston de Letorières Marc Scoffoni Baron Douphol Ugo Rabec Marquis d’Obigny Alfredo Poesina*** Giuseppe Laurent Labarbe*** Un Commissionnaire Didier Pizzolitto*** Un Domestique de Flora

Danseurs : Sophie Célikoz, François Auger

* Distribution des 26/09, 29/09, 02/10, 04/10 et 07/10 ** Distribution des 28/09, 30/09, 05/10 et 07/10 *** Artistes du Chœur du Capitole

Orchestre national du Capitole Chœur du Capitole

Nouvelle coproduction : Théâtre du Capitole / Opéra national de Bordeaux

La Traviata fait l’objet d’une captation télévisuelle réalisée par François Roussillon, coproduite par le Théâtre du Capitole, François Roussillon et Associés , avec la participation de France télévisions et le soutien du CNC.

mediainfo: La Traviata_ de Verdi au théâtre du Capitole 4-10-2018\_La Traviata_ de Verdi au théâtre du Capitole (720p_25fps_H264-128kbit_AAC).mp4 Format : MPEG-4 Format profile : Base Media Codec ID : isom (isom/iso2/avc1/mp41) File size : 916 MiB Duration : 2 h 53 min Overall bit rate : 739 kb/s Movie name : "La Traviata" de Verdi au théâtre du Capitole Performer : France 3 Occitanie Recorded date : 2018 Writing application : Lavf58.18.104 Comment : https://www.youtube.com/watch?v=O3Mtu6_j6vA

Video ID : 1 Format : AVC Format/Info : Advanced Video Codec Format profile : Main@L3.1 Format settings : CABAC / 3 Ref Frames Format settings, CABAC : Yes Format settings, RefFrames : 3 frames Codec ID : avc1 Codec ID/Info : Advanced Video Coding Duration : 2 h 53 min Bit rate : 607 kb/s Width : 1 280 pixels Height : 720 pixels Display aspect ratio : 16:9 Frame rate mode : Constant Frame rate : 25.000 FPS Color space : YUV Chroma subsampling : 4:2:0 Bit depth : 8 bits Scan type : Progressive Bits/(Pixel*Frame) : 0.026 Stream size : 753 MiB (82%) Color range : Limited Color primaries : BT.709 Transfer characteristics : BT.709 Matrix coefficients : BT.709 Codec configuration box : avcC

Audio ID : 2 Format : AAC LC Format/Info : Advanced Audio Codec Low Complexity Codec ID : mp4a-40-2 Duration : 2 h 53 min Bit rate mode : Constant Bit rate : 126 kb/s Channel(s) : 2 channels Channel layout : L R Sampling rate : 44.1 kHz Frame rate : 43.066 FPS (1024 SPF) Compression mode : Lossy Stream size : 156 MiB (17%) Language : English Default : Yes Alternate group : 1



Click below for a preview.




All download links and files are emailed to you within 72 business hours of your order. Please note: If you are charged shipping for any MP3, please let us know and we will refund you immediately! Also, almost all CD's are available as MP3's.

Shipping rates in the USA and Canada are $3.99 for the first item and $1.00 for each additional item. Shipping rates outside the USA and Canada are $5.99 for the first item and $2.50 for each additional item.

Important Information!!!
USA Telephone (404) 200-4776 We sell only opera recordings. The recordings are sent to you in paper sleeves with no tray card or inserts, just the raw discs with printed labels. These recordings are of nonprofessional quality that are in the public domain. The quality of these old opera recordings is not very good and they are meant for collectors and educational purposes only. Most of them are 30 or 40 years old, so they might be blurry, colors faded, and not sound very good, but they might not be available elsewhere. Please note that most of our recordings do not have tracks, they have 1 long track per disc.