USA Tel (404) 200-4776

MP3-1711700 Correction: Bach, Mass in b, Amsterdam 25-12-2017

MP3-1711700 Correction: Bach, Mass in b, Amsterdam 25-12-2017
Item# MP3-1711700
$6.99

Product Description

Concertgebouw Amsterdam, 25-12-2017

* Johann Sebastian Bach – Mis in b kl.t. ‘Hohe Messe’ BWV 232

Collegium Vocale Gent Koninklijk Concertgebouworkest Philippe Herreweghe, dirigent

Dorothee Mields, sopraan Hana Blazíková, sopraan Alex Potter, countertenor Benjamin Hulett, tenor Kresimir Strazanac, bas

-------------------------------------------------------------------------

Messe H-moll Amsterdam 25dec2017.m2ts Format : BDAV Format/Info : Blu-ray Video File size : 2.66 GiB Duration : 2h 2mn Overall bit rate mode : Variable Overall bit rate : 3 112 Kbps Maximum Overall bit rate : 28.0 Mbps

Video ID : 2007 (0x7D7) Menu ID : 21103 (0x526F) Format : AVC Format/Info : Advanced Video Codec Format profile : High@L4.0 Format settings, CABAC : Yes Format settings, ReFrames : 4 frames Codec ID : 27 Duration : 2h 2mn Bit rate : 2 724 Kbps Width : 1 920 pixels Height : 1 080 pixels Display aspect ratio : 16:9 Frame rate : 25.000 fps Standard : Component Color space : YUV Chroma subsampling : 4:2:0 Bit depth : 8 bits Scan type : Interlaced Scan order : Top Field First Bits/(Pixel*Frame) : 0.053 Stream size : 2.32 GiB (88%) Color primaries : BT.709 Transfer characteristics : BT.709 Matrix coefficients : BT.709

Audio ID : 3007 (0xBBF) Menu ID : 21103 (0x526F) Format : MPEG Audio Format version : Version 1 Format profile : Layer 2 Mode : Joint stereo Mode extension : Intensity Stereo + MS Stereo Codec ID : 4 Duration : 2h 2mn Bit rate mode : Constant Bit rate : 256 Kbps Channel count : 2 channels Sampling rate : 48.0 KHz Compression mode : Lossy Delay relative to video : -925ms Stream size : 224 MiB (8%) Language : French

Messe H-moll Amsterdam 25dec2017.m2ts

Click below for a preview.


All download links and files are emailed to you within 72 business hours of your order. Please note: If you are charged shipping for any MP3, please let us know and we will refund you immediately! Also, almost all CD's are available as MP3's.

Shipping rates in the USA and Canada are $3.99 for the first item and $1.00 for each additional item. Shipping rates outside the USA and Canada are $5.99 for the first item and $2.50 for each additional item.

Important Information!!!
USA Telephone (404) 200-4776 We sell only opera recordings. The recordings are sent to you in paper sleeves with no tray card or inserts, just the raw discs with printed labels. These recordings are of nonprofessional quality that are in the public domain. The quality of these old opera recordings is not very good and they are meant for collectors and educational purposes only. Most of them are 30 or 40 years old, so they might be blurry, colors faded, and not sound very good, but they might not be available elsewhere. Please note that most of our recordings do not have tracks, they have 1 long track per disc.