USA Tel (404) 200-4776

CD7823 Monteverdi Incoronazione Jones Vickers Paris 1978

CD7823 Monteverdi Incoronazione Jones Vickers Paris 1978
Item# CD7823
Regular price: $9.90
Sale price: $7.92

Product Description

CD7823 Monteverdi Incoronazione Jones Vickers Paris 1978



NB - Because of the length of the opera's name, the files are found as:

POPPEA - Jones, Vickers, Ludwig, Ghiaurov - Paris 17 Mar 1978 - CD1 POPPEA - Jones, Vickers, Ludwig, Ghiaurov - Paris 17 Mar 1978 - CD2

Claudio Monteverdi L'INCORONAZIONE DI POPPEA Non-broadcast recording

Paris (unknown venue) dir : Julius Rudel March 17, 1978

Jon Vickers (Nerone) Gwyneth Jones (Poppea) Christa Ludwig (Ottavia) Nicolai Ghiaurov (Seneca) Richard Stillwell (Ottone) Valerie Masterson (Drusella/Fortuna) Jocelyne Taillon (Arnalta) Michel Senechal (Lucano) Charles Burles (Valletto/Primo Soldato) Daniele Perriers (Damigella/Amore) Janine Boulongne (Nurse) Marc Vento (Liberto) Pierre Yves le Maigat (Lictor) Michel Philippe (Secondo Soldato)

----------------------------

FILE "C:\My Music\POPPEA - Jones, Vickers, Ludwig, Ghiaurov - Paris 17 Mar 1978 - CD1.wav" WAVE TRACK 01 AUDIO INDEX 01 00:00:00 TRACK 02 AUDIO INDEX 01 08:30:74 TRACK 03 AUDIO INDEX 01 13:43:09 TRACK 04 AUDIO INDEX 01 16:35:72 TRACK 05 AUDIO INDEX 01 27:36:05 TRACK 06 AUDIO INDEX 01 32:06:26 TRACK 07 AUDIO INDEX 01 37:58:61 TRACK 08 AUDIO INDEX 01 40:02:57 TRACK 09 AUDIO INDEX 01 47:01:23 TRACK 10 AUDIO INDEX 01 48:24:22 TRACK 11 AUDIO INDEX 01 53:39:44 TRACK 12 AUDIO INDEX 01 63:22:26 TRACK 13 AUDIO INDEX 01 68:56:42 TRACK 14 AUDIO INDEX 01 73:06:04

-----------------------------

FILE "C:\My Music\POPPEA - Jones, Vickers, Ludwig, Ghiaurov - Paris 17 Mar 1978 - CD2.wav" WAVE TRACK 01 AUDIO INDEX 01 00:00:00 TRACK 02 AUDIO INDEX 01 05:20:70 TRACK 03 AUDIO INDEX 01 12:11:07 TRACK 04 AUDIO INDEX 01 18:40:22 TRACK 05 AUDIO INDEX 01 22:35:16 TRACK 06 AUDIO INDEX 01 26:31:71 TRACK 07 AUDIO INDEX 01 33:16:64 TRACK 08 AUDIO INDEX 01 34:55:66 TRACK 09 AUDIO INDEX 01 38:39:47 TRACK 10 AUDIO INDEX 01 42:49:39 TRACK 11 AUDIO INDEX 01 45:37:35 TRACK 12 AUDIO INDEX 01 50:54:30 TRACK 13 AUDIO INDEX 01 55:05:24 TRACK 14 AUDIO INDEX 01 59:08:36 TRACK 15 AUDIO INDEX 01 63:10:59

The product you receive will be better quality than what you see and hear below.




All download links and files are emailed to you within 72 business hours of your order. Please note: If you are charged shipping for any MP3, please let us know and we will refund you immediately! Also, almost all CD's are available as MP3's.

Shipping rates in the USA and Canada are $3.99 for the first item and $1.00 for each additional item. Shipping rates outside the USA and Canada are $5.99 for the first item and $2.50 for each additional item.

Important Information!!!
USA Telephone (404) 200-4776 We sell only opera recordings. The recordings are sent to you in paper sleeves with no tray card or inserts, just the raw discs with printed labels. These recordings are of nonprofessional quality that are in the public domain. The quality of these old opera recordings is not very good and they are meant for collectors and educational purposes only. Most of them are 30 or 40 years old, so they might be blurry, colors faded, and not sound very good, but they might not be available elsewhere. Please note that most of our recordings do not have tracks, they have 1 long track per disc.