USA Tel (404) 200-4776

CD1929900 BERGEN NATIONAL OPERA Werther

CD1929900 BERGEN NATIONAL OPERA Werther
Item# CD1929900
Regular price: $7.95
Sale price: $3.18

Product Description

CD1929900 BERGEN NATIONAL OPERA Werther

BERGEN NATIONAL OPERA Werther

In a stuffy provincial town, a passionate and idealistic poet accompanies a dutiful young lady to a ball. He falls madly in love with her - but she is already engaged to another.

Bergen National Opera presents Massenet’s great opera in a new production directed and designed by Antony McDonald. The Lithuanian tenor Edgaras Montvidas sings the title role - regarded as one of the most poetic and expressive in the French repertoire - alongside Cardiff Singer of the World 2017 competition winner Catriona Morison as Charlotte.

Sung in French Subtitles in English soon available with possibility of auto-translation into 114 other languages.

Available from 22.03.2019 at 19h00 CET

Available until 21.09.2019 at 23h59 CET

Werther Edgaras Montvidas Charlotte Catriona Morison Sophie Hanna Husáhr Albert Tim Mix Le Bailli Mischa Schelomianski Schmidt Vladimir Dmitruk Johann Igor Gnidii Chorus Bergen National Opera Chorus Orchestra Bergen Philharmonic Orchestra

Music Jules Massenet Conductor Frédéric Chaslin Director Antony McDonald Set Designer Antony McDonald Costume Designer Antony McDonald

WERTHER � Bergen National Opera, Monvidas,Morison;Chaslin 22-3-2019 video.rar 2.97 Go

WERTHER Massenet – Bergen National Opera (1080p_25fps_H264-128kbit_AAC).mp4 Format : MPEG-4 Format profile : Base Media Codec ID : isom (isom/iso2/avc1/mp41) File size : 2.66 GiB Duration : 2 h 53 min Overall bit rate : 2 198 kb/s Movie name : WERTHER Massenet – Bergen National Opera Performer : OperaVision Recorded date : 2019 Writing application : Lavf58.18.104

Video ID : 1 Format : AVC Format/Info : Advanced Video Codec Format profile : High@L4 Format settings : CABAC / 3 Ref Frames Format settings, CABAC : Yes Format settings, RefFrames : 3 frames Codec ID : avc1 Codec ID/Info : Advanced Video Coding Duration : 2 h 53 min Bit rate : 2 064 kb/s Width : 1 920 pixels Height : 1 080 pixels Display aspect ratio : 16:9 Frame rate mode : Constant Frame rate : 25.000 FPS Color space : YUV Chroma subsampling : 4:2:0 Bit depth : 8 bits Scan type : Progressive Bits/(Pixel*Frame) : 0.040 Stream size : 2.50 GiB (94%) Title : ISO Media file produced by Google Inc. Created on: 03/22/2019. Color range : Limited Color primaries : BT..709 Transfer characteristics : BT.709 Matrix coefficients : BT.709 Codec configuration box : avcC

Audio ID : 2 Format : AAC LC Format/Info : Advanced Audio Codec Low Complexity Codec ID : mp4a-40-2 Duration : 2 h 53 min Bit rate mode : Constant Bit rate : 128 kb/s Channel(s) : 2 channels Channel layout : L R Sampling rate : 44.1 kHz Frame rate : 43.066 FPS (1024 SPF) Compression mode : Lossy Stream size : 159 MiB (6%) Title : ISO Media file produced by Google Inc. Created on: 03/22/2019. Default : Yes Alternate group : 1





Click below for a preview.




All download links and files are emailed to you within 72 business hours of your order. Please note: If you are charged shipping for any MP3, please let us know and we will refund you immediately! Also, almost all CD's are available as MP3's.

Shipping rates in the USA and Canada are $3.99 for the first item and $1.00 for each additional item. Shipping rates outside the USA and Canada are $5.99 for the first item and $2.50 for each additional item.

Important Information!!!
USA Telephone (404) 200-4776 We sell only opera recordings. The recordings are sent to you in paper sleeves with no tray card or inserts, just the raw discs with printed labels. These recordings are of nonprofessional quality that are in the public domain. The quality of these old opera recordings is not very good and they are meant for collectors and educational purposes only. Most of them are 30 or 40 years old, so they might be blurry, colors faded, and not sound very good, but they might not be available elsewhere. Please note that most of our recordings do not have tracks, they have 1 long track per disc.